ImperiaFilm.ru
:: Детали торрента

Кнопка и Антон / Pnktchen und Anton (1953) HDTVRip 720p | L1 Золотой торрент

ПредупреждениеАвторизуйтесь, чтобы скачать .torrent файл.
Данная раздача является свободной — учитывается только количество отданного, количество скачанного не фиксируется.
Теги / Меткисемейный
Постер
ОписаниеИнформация о фильме
Название: Кнопка и Антон
Оригинальное название: Pnktchen und Anton
Год выхода: 1953
Жанр: семейный

Режиссер: Томас Энгель
В ролях: Сабина Эггерт, Петер Фелдт, Пауль Клингер, Герта Файлер, Хайдемари Хатейер, Анни Розар, Яне Тильден, Хьюго Готтшлих, Ханс Пуц, Мария Эйс, Михель Яниш

О фильме:
Девочка Луиза по прозвищу Кнопка - из состоятельной семьи, но несмотря на социальные различия она дружит с Антоном - мальчиком, который сам должен зарабатывать на жизнь себе и больной матери. Друзья попадают в различные приключения и даже предотвращают кражу в доме Кнопки...


http://s.rutor.org/imdb/pic/0046218.gif http://www.kinopoisk.ru/rating/59626.gif http://i65.fastpic.ru/big/2015/1119/11/721286271919d6408115461a89aadb11.gif

Производство: Германия, Австрия / Rhombus Film, Ring-Film
Продолжительность: 01:26:09
Озвучивание: любительское (одноголосое закадровое) Александр Харченко по переводу Михаила Турбовича

Файл
Качество: HDTVRip 720p
Формат: MKV
Видео: MPEG-4 AVC, 1280x720 (16:9), 25.000 fps, 3181 kbps
Аудио #1: русский, MP3 2.0, 44.1 kHz, 128 kbps
Аудио #2: немецкий, AC3 2.0, 48 kHz, 384 kbps

[spoiler=MediaInfo]
Общее
Уникальный идентификатор : 188780277893301559244008041807693086659 (0x8E05C24E822FF8FDAF5310D2C295FFC3)
Полное имя : Puenktchen.und.Anton.1953.x264.HDTVRip.720p.mkv
Формат : Matroska
Версия формата : Version 4 / Version 2
Размер файла : 2,22 Гбайт
Продолжительность : 1 ч. 26 м.
Общий поток : 3695 Кбит/сек
Дата кодирования : UTC 2015-05-20 22:08:07
Программа кодирования : mkvmerge v7.6.0 ('Garden of Dreams') 64bit built on Feb 8 2015 13:04:34
Библиотека кодирования : libebml v1.3.1 + libmatroska v1.4.2
DURATION : 01:26:09.397000000
NUMBER_OF_FRAMES : 197891
NUMBER_OF_BYTES : 82710359
_STATISTICS_WRITING_APP : mkvmerge v7.6.0 ('Garden of Dreams') 64bit built on Feb 8 2015 13:04:34
_STATISTICS_WRITING_DATE_UTC : 2015-05-20 22:08:07
_STATISTICS_TAGS : BPS DURATION NUMBER_OF_FRAMES NUMBER_OF_BYTES

Видео
Идентификатор : 1
Формат : AVC
Формат/Информация : Advanced Video Codec
Профиль формата : High@L4.1
Параметр CABAC формата : Да
Параметр ReFrames формата : 5 кадров
Идентификатор кодека : V_MPEG4/ISO/AVC
Продолжительность : 1 ч. 26 м.
Битрейт : 3181 Кбит/сек
Ширина : 1280 пикселей
Высота : 720 пикселей
Соотношение сторон : 16:9
Режим частоты кадров : Постоянный
Частота кадров : 25,000 кадров/сек
Цветовое пространство : YUV
Субдискретизация насыщенности : 4:2:0
Битовая глубина : 8 бит
Тип развёртки : Прогрессивная
Бит/(Пиксели*Кадры) : 0.138
Размер потока : 1,87 Гбайт (84%)
Библиотека кодирования : x264 core 116 r2074 2641b9e
Настройки программы : cabac=1 / ref=5 / deblock=1:0:0 / analyse=0x3:0x113 / me=umh / subme=6 / psy=1 / psy_rd=1.00:0.00 / mixed_ref=1 / me_range=12 / chroma_me=1 / trellis=1 / 8x8dct=1 / cqm=0 / deadzone=21,11 / fast_pskip=1 / chroma_qp_offset=-2 / threads=3 / sliced_threads=0 / nr=0 / decimate=1 / interlaced=0 / bluray_compat=0 / constrained_intra=0 / bframes=3 / b_pyramid=2 / b_adapt=1 / b_bias=0 / direct=3 / weightb=1 / open_gop=0 / weightp=2 / keyint=250 / keyint_min=25 / scenecut=40 / intra_refresh=0 / rc_lookahead=40 / rc=2pass / mbtree=1 / bitrate=3181 / ratetol=1.0 / qcomp=0.60 / qpmin=10 / qpmax=51 / qpstep=4 / cplxblur=20.0 / qblur=0.5 / ip_ratio=1.40 / aq=1:1.00
Default : Да
Forced : Нет

Аудио #1
Идентификатор : 2
Формат : MPEG Audio
Версия формата : Version 1
Профиль формата : Layer 3
Идентификатор кодека : A_MPEG/L3
Идентификатор кодека/Подсказка : MP3
Продолжительность : 1 ч. 26 м.
Вид битрейта : Постоянный
Битрейт : 128 Кбит/сек
Каналы : 2 канала
Частота : 44,1 КГц
Метод сжатия : С потерями
Размер потока : 79,2 Мбайт (3%)
Библиотека кодирования : LAME3.98r
Настройки программы : -m s -V 4 -q 3 -lowpass 17 -b 128
Язык : Russian
Default : Да
Forced : Нет

Аудио #2
Идентификатор : 3
Формат : AC-3
Формат/Информация : Audio Coding 3
Расширение режима : CM (complete main)
Параметр Endianness формата : Big
Идентификатор кодека : A_AC3
Продолжительность : 1 ч. 26 м.
Вид битрейта : Постоянный
Битрейт : 384 Кбит/сек
Каналы : 2 канала
Расположение каналов : Front: L R
Частота : 48,0 КГц
Метод сжатия : С потерями
Размер потока : 237 Мбайт (10%)
Язык : German
Default : Нет
Forced : Нет

Скриншоты
Похожие файлы
Загрузка / Обновление
КатегорияФильмы/HDTV/HD/Blu-Ray/MKV RSS лента
РаздающийПоследний раз был здесь 11 месяцев 3 недели 5 дней назад
Размер2.22 GB (2,387,815,628 байт)
Добавлен
Просмотров233 раз (a)
Взят0 раз (a)
Скачан0 раз (a)
Релиз группа
Файлы1
Этот трекер
Этот трекер - Загрузка / Обновление
Мультитрекер
Мультитрекер - Загрузка / Обновление
Просматривают Просматривают Загрузка...

-†- ¿? -†-
« Предыдущая - † Страница † - Следующая »

:: Список Комментариев
Нет комментариев.

 Нет комментариев
Вам запрещенно редактировать, создать или удалять комментарии.
Счётчики

Для Вас всё самое лучшее фильмы, музыка, игры, книги, софт, онлайн ТВ, новинки и многое другое.А также имеется Радио Чат, где можно приятно провести время.
Яндекс.Метрика Рейтинг сайтов
Сервис проверки доменов Рейтинг@Mail.ru Рейтинг TOP100 Business Key Top Sites
Страничка сформирована за 0.013685 секунд.